Game.of.Thrones.S07E02.1080p.WEB.h264-TBS-RarBG

  • Category TV
  • Type HD
  • Language English
  • Total size 1.5 GB
  • Uploaded By TeamRocker
  • Downloads 65477
  • Last checked 3 weeks ago
  • Date uploaded 3 weeks ago
  • Seeders 5030
  • Leechers 639
90%
July 24, 2017, 3:00 am

Game of Thrones

7x2 | Stormborn

Daenerys receives an unexpected visitor. Jon faces a revolt. Tyrion plans the conquest of Westeros.

Infohash : F1AE422A7FE4000606FF82DCC6B9C7A97AAC9671






Video
ID                                       : 1
Format                                   : AVC
Format/Info                              : Advanced Video Codec
Format profile                           : [email protected]
Format settings, CABAC                   : Yes
Format settings, ReFrames                : 4 frames
Codec ID                                 : V_MPEG4/ISO/AVC
Duration                                 : 59mn 15s
Bit rate mode                            : Variable
Bit rate                                 : 3 536 Kbps
Maximum bit rate                         : 4 510 Kbps
Width                                    : 1 920 pixels
Height                                   : 1 080 pixels
Display aspect ratio                     : 16:9
Frame rate mode                          : Constant
Frame rate                               : 23.976 (24000/1001) fps
Color space                              : YUV
Chroma subsampling                       : 4:2:0
Bit depth                                : 8 bits
Scan type                                : Progressive
Bits/(Pixel*Frame)                       : 0.071
Stream size                              : 1.46 GiB (95%)
Default                                  : Yes
Forced                                   : No

Audio
ID                                       : 2
Format                                   : AAC
Format/Info                              : Advanced Audio Codec
Format profile                           : LC
Codec ID                                 : A_AAC
Duration                                 : 59mn 15s
Bit rate                                 : 192 Kbps
Channel(s)                               : 2 channels
Channel positions                        : Front: L R
Sampling rate                            : 48.0 KHz
Frame rate                               : 46.875 fps (1024 spf)
Compression mode                         : Lossy
Delay relative to video                  : -41ms
Stream size                              : 80.3 MiB (5%)
Default                                  : Yes
Forced                                   : No

Files:

Game.of.Thrones.S07E02.1080p.WEB.h264-TBS[rarbg]
  • RARBG.txt (0.0 KB)
  • game.of.thrones.s07e02.1080p.web.h264-tbs.mkv (1.5 GB)
  • game.of.thrones.s07e02.1080p.web.x264-tbs.nfo (0.1 KB)

Comments

Code:

  • http://tracker.trackerfix.com:80/announce
  • udp://9.rarbg.me:2710/announce
  • udp://9.rarbg.to:2710/announce